哥斯拉大战金刚 Godzilla vs Kong 2021 2160p HMAX WEB-DL DDP 5.1 Atmos DV H.265-FLUX

123

真佩服老外的想象力,人家已经不满洲于传统故事了,开始编新故事,造新的ip。其实前一段看那个“侍神令”也不错,可以出系类的就好了,有人物主线并且一直延续下去。特效的功力方面我们是一定没办法和老外比,但是合理应用也够了。还是讲故事和包装的能力了。另外说下我感觉流浪地球确实不错。

◎译  名 哥斯拉大战金刚/King Kong vs. Godzilla/哥吉拉大战金刚(台)/金刚大战哥斯拉
◎片  名 Godzilla vs Kong
◎年  代 2021
◎产  地 美国,澳大利亚
◎类  别 动作 / 科幻 / 冒险
◎语  言 英语
◎上映日期 2021-03-24(中国台湾) / 2021-03-26(中国大陆) / 2021-03-31(美国)
◎IMDb评分  7.4/10 from 16838 users
◎IMDb链接  https://www.imdb.com/title/tt5034838/
◎豆瓣评分 6.7/10 from 103393 users
◎豆瓣链接 https://movie.douban.com/subject/26613692/
◎片  长 113分钟
◎导  演 亚当·温加德 Adam Wingard
◎编  剧 特里·鲁西奥 Terry Rossio / 埃里克·皮尔森 Eric Pearson / 麦克思·鲍伦斯坦 Max Borenstein / 迈克尔·道赫蒂 Michael Dougherty / 扎克·希尔兹 Zach Shields
◎主  演 亚历山大·斯卡斯加德 Alexander Skarsgård
米莉·波比·布朗 Millie Bobby Brown
丽贝卡·豪尔 Rebecca Hall
凯莉·霍特尔 Kaylee Hottle
布莱恩·泰里·亨利 Brian Tyree Henry
小栗旬 Shun Oguri
艾莎·冈萨雷斯 Eiza González
朱利安·迪尼森 Julian Dennison
兰斯·莱迪克 Lance Reddick
凯尔·钱德勒 Kyle Chandler
德米安·比齐尔 Demián Bichir
哈基姆·凯-卡西姆 Hakeem Kae-Kazim
钱信伊 Ronny Chieng
约翰·皮鲁切洛 John Pirruccello
克里斯·乔克 Chris Chalk
康兰·卡萨尔 Conlan Casal
布拉德·麦克默里 Brad McMurray
本杰明·里格比 Benjamin Rigby
普里西拉·道伊西 Priscilla Doueihy
戴维·卡斯蒂洛 David Castillo
吉姆·帕尔默 Jim Palmer
柯蒂斯·布什 Curtis Bush
皮拉·福德 Piéra Forde
爱丽丝·兰斯伯里 Alice Lanesbury
肖恩·麦克布莱德 Shawn McBride
乔尔·皮尔斯 Joel Pierce
乔恩·奎斯蒂德 Jon Quested
塔斯尼姆·罗克 Tasneem Roc
艾梅伯·瓦尔斯 Amber Walls
迪索·拉莫斯 Diezel Ramos
◎标  签 怪兽 | 哥斯拉大战金刚 | 科幻 | 哥斯拉 | 动作 | 美国 | 美国电影 | 奇幻
◎简  介
这两位宛如神衹一般强大的对手于一场壮观的战争中相遇,彼时世界命运正悬于一线。为了找到真正的家园,金刚与他的保护者们踏上了一次艰难的旅程。与他们一道前行的还有一个年轻的孤儿女孩——吉雅,这个女孩与金刚之间存在着一种独特而强大的紧密联系。但意想不到的是,他们在前行的航道上与愤怒的哥斯拉狭路相逢,也由此在全球引起了一系列破坏。一股无形的力量造成了这两只巨兽之间的巨大冲突,深藏在地心深处的奥秘也由此揭开。
引用
General
Complete name                            : Godzilla.vs..Kong.2021.2160p.HMAX.WEB-DL.DDP.5.1.Atmos.DV.H.265-FLUX.mp4
Format                                   : MPEG-4
Format profile                           : Base Media / Version 2
Codec ID                                 : mp42 (isom/mp42/dby1)
File size                                : 14.8 GiB
Duration                                 : 1 h 53 min
Overall bit rate mode                    : Variable
Overall bit rate                         : 18.7 Mb/s
Encoded date                             : UTC 2021-03-31 07:37:44
Tagged date                              : UTC 2021-03-31 07:37:44
Video
ID                                       : 1
Format                                   : HEVC
Format/Info                              : High Efficiency Video Coding
Format profile                           : Main 10@L5@Main
HDR format                               : Dolby Vision, Version 1.0, dvhe.05.06, BL+RPU
Codec ID                                 : dvhe
Codec ID/Info                            : High Efficiency Video Coding with Dolby Vision
Duration                                 : 1 h 53 min
Bit rate                                 : 17.9 Mb/s
Width                                    : 3 840 pixels
Height                                   : 2 160 pixels
Display aspect ratio                     : 16:9
Frame rate mode                          : Constant
Frame rate                               : 23.976 (24000/1001) FPS
Color space                              : YUV
Chroma subsampling                       : 4:2:0
Bit depth                                : 10 bits
Bits/(Pixel*Frame)                       : 0.090
Stream size                              : 14.2 GiB (96%)
Writing library                          : x265 3.4hy:[Linux][GCC 7.5.0][64 bit] 10bit
Encoding settings                        : cpuid=1111039 / frame-threads=1 / wpp / no-pmode / no-pme / no-psnr / no-ssim / log-level=2 / input-csp=1 / input-res=3840x2160 / interlace=0 / total-frames=0 / level-idc=0 / high-tier=1 / uhd-bd=0 / ref=4 / no-allow-non-conformance / repeat-headers / annexb / aud / hrd / info / hash=0 / no-temporal-layers / no-open-gop / min-keyint=96 / keyint=96 / gop-lookahead=0 / bframes=4 / b-adapt=2 / b-pyramid / bframe-bias=0 / rc-lookahead=25 / lookahead-slices=4 / scenecut=40 / hist-scenecut=0 / radl=0 / no-splice / no-intra-refresh / ctu=64 / min-cu-size=8 / rect / no-amp / max-tu-size=32 / tu-inter-depth=1 / tu-intra-depth=1 / limit-tu=0 / rdoq-level=2 / dynamic-rd=0.00 / no-ssim-rd / signhide / no-tskip / nr-intra=0 / nr-inter=0 / no-constrained-intra / strong-intra-smoothing / max-merge=3 / limit-refs=3 / limit-modes / me=3 / subme=3 / merange=57 / temporal-mvp / no-frame-dup / no-hme / weightp / no-weightb / no-analyze-src-pics / deblock=0:0 / sao / no-sao-non-deblock / rd=4 / selective-sao=4 / no-early-skip / rskip / no-fast-intra / no-tskip-fast / no-cu-lossless / no-b-intra / no-splitrd-skip / rdpenalty=0 / psy-rd=2.00 / psy-rdoq=1.00 / no-rd-refine / no-lossless / cbqpoffs=0 / crqpoffs=3 / rc=abr / bitrate=18000 / qcomp=0.60 / qpstep=4 / stats-write=0 / stats-read=2 / cplxblur=20.0 / qblur=0.5 / vbv-maxrate=24500 / vbv-bufsize=24500 / vbv-init=0.6 / vbv-end=0.6 / vbv-end-fr-adj=0.0 / ipratio=1.40 / pbratio=1.30 / aq-mode=2 / aq-strength=1.00 / cutree / zone-count=0 / no-strict-cbr / qg-size=32 / no-rc-grain / qpmax=69 / qpmin=0 / no-const-vbv / sar=1 / overscan=0 / videoformat=5 / range=1 / colorprim=2 / transfer=2 / colormatrix=2 / chromaloc=0 / display-window=0 / cll=0,0 / min-luma=0 / max-luma=1023 / log2-max-poc-lsb=8 / vui-timing-info / vui-hrd-info / no-concatenation / slices=1 / no-opt-qp-pps / no-opt-ref-list-length-pps / no-multi-pass-opt-rps / scenecut-bias=0.05 / hist-threshold=0.01 / no-opt-cu-delta-qp / no-aq-motion / no-hdr10 / no-hdr10-opt / no-dhdr10-opt / no-idr-recovery-sei / analysis-reuse-level=0 / analysis-save-reuse-level=0 / analysis-load-reuse-level=0 / scale-factor=0 / refine-intra=0 / refine-inter=0 / refine-mv=1 / refine-ctu-distortion=0 / no-limit-sao / ctu-info=0 / no-lowpass-dct / refine-analysis-type=0 / copy-pic=1 / max-ausize-factor=1.0 / no-dynamic-refine / no-single-sei / no-hevc-aq / no-svt / no-field / qp-adaptation-range=1.00 / no-scenecut-aware-qpconformance-window-offsets / right=0 / bottom=0 / decoder-max-rate=0
Default                                  : Yes
Alternate group                          : 1
Encoded date                             : UTC 2021-03-31 07:16:24
Tagged date                              : UTC 2021-03-31 07:38:59
Color range                              : Full
Codec configuration box                  : hvcC+dvcC
Audio
ID                                       : 2
Format                                   : E-AC-3 JOC
Format/Info                              : Enhanced AC-3 with Joint Object Coding
Commercial name                          : Dolby Digital Plus with Dolby Atmos
Codec ID                                 : ec-3
Duration                                 : 1 h 53 min
Bit rate mode                            : Constant
Bit rate                                 : 768 kb/s
Maximum bit rate                         : 811 kb/s
Channel(s)                               : 6 channels
Channel layout                           : L R C LFE Ls Rs
Sampling rate                            : 48.0 kHz
Frame rate                               : 31.250 FPS (1536 SPF)
Compression mode                         : Lossy
Stream size                              : 622 MiB (4%)
Title                                    : English
Language                                 : English
Service kind                             : Complete Main
Encoded date                             : UTC 2021-03-31 07:38:21
Tagged date                              : UTC 2021-03-31 07:38:59
Complexity index                         : Not present / 16
Number of dynamic objects                : 15
Bed channel count                        : 1 channel
Bed channel configuration                : LFE
Text #1
ID                                       : 3
Format                                   : Timed Text
Codec ID                                 : tx3g
Duration                                 : 1 h 46 min
Bit rate mode                            : Variable
Bit rate                                 : 55 b/s
Stream size                              : 42.7 KiB (0%)
Title                                    : English
Language                                 : English
Forced                                   : No
Encoded date                             : UTC 2021-03-31 07:38:58
Tagged date                              : UTC 2021-03-31 07:38:59
Text #2
ID                                       : 4
Format                                   : Timed Text
Codec ID                                 : tx3g
Duration                                 : 1 h 52 min
Bit rate mode                            : Variable
Bit rate                                 : 52 b/s
Stream size                              : 42.7 KiB (0%)
Title                                    : Spanish
Language                                 : Spanish
Forced                                   : No
Encoded date                             : UTC 2021-03-31 07:38:59
Tagged date                              : UTC 2021-03-31 07:38:59

 

 

 

etzzy

希望50年后它依然存在,让我感觉我一直在做一件稍微有点cool的事情 喜欢一起交个朋友吧 微信/QQ :56280295

Leave a Reply

Your email address will not be published. Required fields are marked *

微信扫一扫

微信扫一扫

微信扫一扫,分享到朋友圈

哥斯拉大战金刚 Godzilla vs Kong 2021 2160p HMAX WEB-DL DDP 5.1 Atmos DV H.265-FLUX
返回顶部

显示

忘记密码?

显示

显示

获取验证码

Close